website free tracking Chucky.S01E01.Death.by.Misadventure.1080p.HULU.WEBRip.AAC2.0.H264... > 외국티비 > 공유의 바다 바다보아
 [구글검색] 구글에서 바다보아 검색 - 구글에서 토렌트를 검색하실 때에 검색어 뒤에 바다보아를 꼭 붙여서 검색하세요.     바다보아에서 광고중인 웹에 문제가 있다면 메뉴에 나와 있는 운영자 이메일로 연락 주십시오.     사용자님의 다운로드가 완료될 때까지 저희가 함께하겠습니다. 편안하고 즐거운 시간 되십시오.

파일썬

  

  
Chucky.S01E01.Death.by.Misadventure.1080p.HULU.WEBRip.AAC2.0.H264... 토렌트
  • 파일설명:     Screens... (click to enlarge): Chucky.S01E01.Death.by.Misadventure.초고화질.HULU.WEBRip.AAC2.0.H264-FLUXInfolink -> https://www.imdb.com/title/tt8388390/Quote:MediainfoVideoID : 1Format : AVCFormat/Info : Advanced Video CodecFormat profile : [email protected]Format settings : CABAC / 4 Ref FramesFormat settings, CABAC : YesFormat settings, Reference frames : 4 framesCodec ID : V_MPEG4/ISO/AVCDuration : 46 min 42 sBit rate : 4 494 kb/sWidth : 1 920 pixelsHeight : 1 080 pixelsDisplay aspect ratio : 16:9Frame rate mode : ConstantFrame rate : 23.976 (24000/1001) FPSColor space : YUVChroma subsampling : 4:2:0Bit depth : 8 bitsScan type : ProgressiveBits/(Pixel*Frame) : 0.090Stream size : 1.47 GiB (99%)Default : YesForced : NoAudioID : 2Format : AAC LC SBRFormat/Info : Advanced Audio Codec Low Complexity with Spectral Band ReplicationCommercial name : HE-AACFormat settings : ExplicitCodec ID : A_AAC-2Duration : 46 min 42 sBit rate : 64.0 kb/sChannel(s) : 2 channelsChannel layout : L RSampling rate : 48.0 kHzFrame rate : 23.438 FPS (2048 SPF)Compression mode : LossyStream size : 21.4 MiB (1%)Language : EnglishDefault : YesForced : NoText #1ID : 3Format : UTF-8Codec ID : S_TEXT/UTF8Codec ID/Info : UTF-8 Plain TextDuration : 46 min 24 sBit rate : 50 b/sCount of elements : 551Stream size : 17.1 KiB (0%)Language : EnglishDefault : NoForced : NoText #2ID : 4Format : UTF-8Codec ID : S_TEXT/UTF8Codec ID/Info : UTF-8 Plain TextDuration : 46 min 26 sBit rate : 64 b/sCount of elements : 784Stream size : 21.8 KiB (0%)Title : SDHLanguage : EnglishDefault : NoForced : NoMenu00:14:34.000 : Chapter 100:25:44.000 : Chapter 200:34:18.000 : Chapter 300:38:56.000 : Chapter 4 Chucky.S01E01.Death.by.Misadventure.초고화질.HULU.WEBRip.AAC2.0.H264...…
  • 인기 연관 검색어 구글 검색:    
  • 관련 자료(가나다순):    Chucky S01E01 720p HEVC x265-MeGusta    Chucky S01E03 WEBRip x264-ION10
  • 관련 자료(시간순):    Chucky S01E01 720p WEB H264-GGEZ    Chucky S01E03 I Like to Be Hugged 1080p AMZN WEBRip DDP5 1 x264…
  • 같은 시각 자료:    Chucky S01E01 720p HEVC x265-MeGusta    New.Amsterdam.2018.S04E04.WEBRip.x264-ION10
  • 마그넷 링크 및 토렌트 파일:     토렌트 파일 다운로드 대체     토렌트 마그넷 링크 대체    
    광고정보

Chucky.S01E01.Death.by.Misadventure.1080p.HULU.WEBRip.AAC2.0.H264...
댓글 0 조회 6 인증 0 신고 0

Screens... (click to enlarge):





Chucky.S01E01.Death.by.Misadventure.초고화질.HULU.WEBRip.AAC2.0.H264-FLUX

Infolink -> https://www.imdb.com/title/tt8388390/

Quote:

Mediainfo
Video
ID : 1
Format : AVC
Format/Info : Advanced Video Codec
Format profile : [email protected]
Format settings : CABAC / 4 Ref Frames
Format settings, CABAC : Yes
Format settings, Reference frames : 4 frames
Codec ID : V_MPEG4/ISO/AVC
Duration : 46 min 42 s
Bit rate : 4 494 kb/s
Width : 1 920 pixels
Height : 1 080 pixels
Display aspect ratio : 16:9
Frame rate mode : Constant
Frame rate : 23.976 (24000/1001) FPS
Color space : YUV
Chroma subsampling : 4:2:0
Bit depth : 8 bits
Scan type : Progressive
Bits/(Pixel*Frame) : 0.090
Stream size : 1.47 GiB (99%)
Default : Yes
Forced : No

Audio
ID : 2
Format : AAC LC SBR
Format/Info : Advanced Audio Codec Low Complexity with Spectral Band Replication
Commercial name : HE-AAC
Format settings : Explicit
Codec ID : A_AAC-2
Duration : 46 min 42 s
Bit rate : 64.0 kb/s
Channel(s) : 2 channels
Channel layout : L R
Sampling rate : 48.0 kHz
Frame rate : 23.438 FPS (2048 SPF)
Compression mode : Lossy
Stream size : 21.4 MiB (1%)
Language : English
Default : Yes
Forced : No

Text #1
ID : 3
Format : UTF-8
Codec ID : S_TEXT/UTF8
Codec ID/Info : UTF-8 Plain Text
Duration : 46 min 24 s
Bit rate : 50 b/s
Count of elements : 551
Stream size : 17.1 KiB (0%)
Language : English
Default : No
Forced : No

Text #2
ID : 4
Format : UTF-8
Codec ID : S_TEXT/UTF8
Codec ID/Info : UTF-8 Plain Text
Duration : 46 min 26 s
Bit rate : 64 b/s
Count of elements : 784
Stream size : 21.8 KiB (0%)
Title : SDH
Language : English
Default : No
Forced : No

Menu
00:14:34.000 : Chapter 1
00:25:44.000 : Chapter 2
00:34:18.000 : Chapter 3
00:38:56.000 : Chapter 4

Chucky.S01E01.Death.by.Misadventure.초고화질.HULU.WEBRip.AAC2.0.H264...


<< 이 게시판에서 관련된 자료 목록 >>
0 Comments     0.0 / 0
 [구글검색] 구글에서 바다보아 검색 - 구글에서 토렌트를 검색하실 때에 검색어 뒤에 바다보아를 꼭 붙여서 검색하세요.     바다보아에서 광고중인 웹에 문제가 있다면 메뉴에 나와 있는 운영자 이메일로 연락 주십시오. 우리는 당신에게 꼭 필요한 사이트만 광고합니다.     사용자님의 다운로드가 완료될 때까지 저희가 함께하겠습니다. 편안하고 즐거운 시간 되십시오.

파일몽

  

  

IMFORMATION STORE

상단으로 가운데로 하단으로